osu file format v14

[General]
AudioFilename: I'm a Believer.mp3
AudioLeadIn: 2000
PreviewTime: 43382
Countdown: 0
SampleSet: Soft
StackLeniency: 0.7
Mode: 0
LetterboxInBreaks: 0
WidescreenStoryboard: 0

[Editor]
Bookmarks: 40448,42609
DistanceSpacing: 1
BeatDivisor: 4
GridSize: 4
TimelineZoom: 1.8

[Metadata]
Title:I'M A BELIEVER
TitleUnicode:アイム・ア・ビリーバー
Artist:SPYAIR
ArtistUnicode:SPYAIR
Creator:eINess
Version:Easy
Source:ハイキュー!! セカンドシーズン
Tags:Zzz [_Zzz_] Haikyuu!! Haikyu!! Second Season 2nd Opening TV size
BeatmapID:796620
BeatmapSetID:362718

[Difficulty]
HPDrainRate:3
CircleSize:3
OverallDifficulty:3
ApproachRate:4
SliderMultiplier:0.9
SliderTickRate:1

[Events]
//Background and Video events
0,0,"haikyu.jpg",0,0
Video,-175,"SPYAIR - video.avi",0,0
//Break Periods
//Storyboard Layer 0 (Background)
//Storyboard Layer 1 (Fail)
//Storyboard Layer 2 (Pass)
//Storyboard Layer 3 (Foreground)
//Storyboard Sound Samples

[TimingPoints]
84,309.278350515464,4,2,2,60,1,0
18949,-100,4,2,1,70,0,0
19877,-100,4,2,1,80,0,0
29774,-100,4,2,1,70,0,0
34723,-100,4,2,1,80,0,0
39671,-100,4,2,1,70,0,0
42145,-100,4,2,1,80,0,0
44465,-100,4,2,1,90,0,1
54285,-100,4,2,1,90,0,0
54362,-100,4,2,1,90,0,1
64413,-100,4,2,1,90,0,0
71836,-100,4,2,1,80,0,1
75547,-100,4,2,1,90,0,0
76785,-100,4,2,1,80,0,1
80496,-100,4,2,1,90,0,0
81733,-100,4,2,2,60,0,0
88692,-100,4,2,2,40,0,0

[Colours]
Combo1 : 128,128,255
Combo2 : 255,128,64
Combo3 : 128,64,64
Combo4 : 255,255,0

[HitObjects]
264,312,84,6,0,L|398:302,1,135,6|2,0:0|0:0,0:0:0:0:
480,196,1011,1,2,0:0:0:0:
412,136,1321,2,0,L|256:152,2,135,2|2|0,0:0|0:0|0:0,0:0:0:0:
436,48,2558,6,0,L|280:64,1,135,6|2,0:0|0:0,0:0:0:0:
172,100,3486,1,2,0:0:0:0:
112,168,3795,2,0,B|77:135|74:82|99:45,2,135,2|2|0,0:0|0:0|0:0,0:0:0:0:
200,188,5032,6,0,B|194:229|163:260|123:268|89:256,2,135,6|2|2,0:0|0:0|0:0,0:0:0:0:
268,128,6269,2,0,B|313:92|372:89|419:112,1,135,2|2,0:0|0:0,0:0:0:0:
484,128,7042,1,2,0:0:0:0:
436,256,7506,6,0,B|386:239|332:269|320:320,2,135,6|2|2,0:0|0:0|0:0,0:0:0:0:
408,344,8743,1,6,0:0:0:0:
48,356,9980,6,0,B|64:268|64:268|56:200,1,135,6|2,0:0|0:0,0:0:0:0:
12,144,10754,2,0,B|8:100|24:60|52:32,1,90,2|2,0:0|0:0,0:0:0:0:
120,36,11372,2,0,B|176:20|232:39|267:79,1,135,2|2,0:0|0:0,0:0:0:0:
324,112,12145,1,2,0:0:0:0:
392,52,12455,6,0,B|427:97|415:162|368:192,1,135,2|2,0:0|0:0,0:0:0:0:
352,260,13228,1,2,0:0:0:0:
423,310,13538,2,0,B|396:349|345:361|302:340|281:305,1,135,2|2,0:0|0:0,0:0:0:0:
252,256,14310,2,0,B|211:255|175:274|152:304,1,90,2|2,0:0|0:0,0:0:0:0:
104,224,14929,6,0,B|148:183|205:166|260:172,2,135,2|2|2,0:0|0:0|0:0,0:0:0:0:
64,304,16166,2,0,B|29:289|12:251|20:217,2,90,2|2|0,0:0|0:0|0:0,0:0:0:0:
140,352,17094,1,2,0:0:0:0:
224,324,17403,6,0,B|316:312|316:312|356:324,2,135,2|2|2,0:0|0:0|0:0,0:0:0:0:
140,352,18640,2,0,B|128:313|144:273|175:252,1,90,2|8,0:0|0:0,0:0:0:0:
244,236,19259,2,0,L|236:136,1,90,2|8,0:0|0:0,0:0:0:0:
296,76,19877,6,0,B|324:105|365:111|399:96,1,90,6|8,0:0|0:0,0:0:0:0:
468,88,20496,2,0,B|496:72|516:48,2,45,2|2|8,0:0|0:0|0:0,0:0:0:0:
435,172,21114,2,0,B|430:217|445:260,1,90,2|8,0:0|0:0,0:0:0:0:
496,336,21733,2,0,B|468:355|433:357|404:344,1,90,2|8,0:0|0:0,0:0:0:0:
328,308,22352,6,0,B|232:296|232:296|176:308,2,135,6|0|8,0:0|0:0|0:0,0:0:0:0:
356,224,23589,2,0,L|248:212,1,90,2|8,0:0|0:0,0:0:0:0:
188,172,24207,2,0,L|192:120,2,45,2|8|8,0:0|0:0|0:0,0:0:0:0:
116,228,24826,6,0,B|72:216|45:173|52:130,1,90,6|8,0:0|0:0,0:0:0:0:
76,80,25444,2,0,B|56:67|33:62|12:64,2,45,2|2|8,0:0|0:0|0:0,0:0:0:0:
160,44,26063,2,0,L|284:56,1,90,2|8,0:0|0:0,0:0:0:0:
316,112,26681,2,0,L|405:103,1,90,2|8,0:0|0:0,0:0:0:0:
472,164,27300,6,0,B|507:125|503:66|465:32,2,135,6|0|8,0:0|0:0|0:0,0:0:0:0:
388,196,28537,2,0,B|377:228|379:260|392:288,1,90,2|8,0:0|0:0,0:0:0:0:
328,348,29156,2,0,B|284:354|244:332|224:297,1,90,2|8,0:0|0:0,0:0:0:0:
160,288,29774,6,0,B|109:316|43:289|27:223|55:178,1,180,6|8,0:0|0:0,0:0:0:0:
96,76,30857,2,0,L|240:68,1,135,8|0,0:0|0:0,0:0:0:0:
316,36,31630,2,0,L|424:44,1,90,2|8,0:0|0:0,0:0:0:0:
484,88,32248,6,0,B|517:154|516:227|488:288,1,180,6|8,0:0|0:0,0:0:0:0:
384,336,33331,2,0,B|339:297|276:294|229:323,1,135,8|2,0:0|0:0,0:0:0:0:
176,348,34104,2,0,B|142:345|114:322|104:293,1,90,8|8,0:0|0:0,0:0:0:0:
68,216,34723,6,0,L|84:108,1,90,6|2,0:0|0:0,0:0:0:0:
164,96,35341,2,0,L|176:212,1,90,2|2,0:0|0:0,0:0:0:0:
240,244,35960,2,0,B|272:279|323:285|364:262|383:225,2,135,6|8|8,0:0|0:0|0:0,0:0:0:0:
256,192,37197,12,6,38434,0:0:0:0:
136,184,39671,6,0,B|174:133|247:126|294:167,1,180,6|8,0:0|0:0,0:0:0:0:
356,232,40599,1,8,0:0:0:0:
320,316,40908,2,0,L|184:328,2,135,6|2|8,0:0|0:0|0:0,0:0:0:0:
406,339,42145,6,0,B|392:340|448:344|472:312|472:312|472:264|472:264|452:220|484:180|484:180|472:140|472:140|496:96|473:35,1,360,6|6,0:0|0:0,0:0:0:0:
160,92,44465,6,0,B|110:127|96:192|123:243,1,135,6|8,0:0|0:0,0:0:0:0:
160,288,45239,2,0,B|212:273|264:279|309:300,1,135,2|6,0:0|0:0,0:0:0:0:
364,344,46012,1,2,0:0:0:0:
448,312,46321,2,0,L|441:222,1,90,0|2,0:0|0:0,0:0:0:0:
496,148,46940,6,0,B|451:117|391:129|360:171,1,135,6|8,0:0|0:0,0:0:0:0:
296,208,47713,2,0,B|247:218|200:187|188:141,1,135,2|6,0:0|0:0,0:0:0:0:
136,72,48486,1,2,0:0:0:0:
56,112,48795,2,0,B|28:159|38:216|75:251,1,135,0|8,0:0|0:0,0:0:0:0:
132,300,49569,6,0,B|92:274|41:280|8:310,2,135,6|0|8,0:0|0:0|0:0,0:0:0:0:
200,360,50806,2,0,L|296:352,1,90,6|0,0:0|0:0,0:0:0:0:
352,288,51424,2,0,L|441:295,1,90,2|8,0:0|0:0,0:0:0:0:
496,224,52043,6,0,B|527:182|516:122|468:91|422:96,1,180,6|2,0:0|0:0,0:0:0:0:
340,112,52971,1,8,0:0:0:0:
268,56,53280,2,0,B|225:34|178:29|135:40,1,135,6|2,0:0|0:0,0:0:0:0:
52,72,54053,1,8,0:0:0:0:
116,136,54362,6,0,B|126:215|126:215|116:276,1,135,6|8,0:0|0:0,0:0:0:0:
60,340,55136,2,0,B|101:305|157:303|199:327,1,135,2|6,0:0|0:0,0:0:0:0:
272,352,55909,1,2,0:0:0:0:
348,304,56218,2,0,B|356:270|354:237|344:207,1,90,0|2,0:0|0:0,0:0:0:0:
267,172,56837,6,0,B|290:130|341:114|383:131,1,135,6|8,0:0|0:0,0:0:0:0:
437,206,57610,2,0,B|478:179|488:125|464:85,1,135,2|6,0:0|0:0,0:0:0:0:
388,40,58383,1,2,0:0:0:0:
308,84,58692,2,0,L|168:76,1,135,0|8,0:0|0:0,0:0:0:0:
92,40,59465,6,0,B|47:63|28:114|40:159,1,135,6|0,0:0|0:0,0:0:0:0:
68,240,60239,1,2,0:0:0:0:
128,304,60548,2,0,B|161:290|197:288|229:296,1,90,,,0:0:0:0:
292,344,61167,2,0,B|340:368|397:343|412:292,1,135,0|8,0:0|0:0,0:0:0:0:
472,244,61940,6,0,B|480:184|480:184|456:64,1,180,6|2,0:0|0:0,0:0:0:0:
372,36,62868,1,8,0:0:0:0:
300,92,63177,2,0,L|144:80,2,135,6|6|8,0:0|0:0|0:0,0:0:0:0:
356,164,64414,6,0,B|368:199|364:235|348:264,1,90,6|8,0:0|0:0,0:0:0:0:
304,328,65033,1,2,0:0:0:0:
228,284,65342,1,8,0:0:0:0:
156,340,65651,2,0,L|21:354,2,135,6|0|8,0:0|0:0|0:0,0:0:0:0:
228,283,66888,6,0,B|228:237|220:194,1,90,6|8,0:0|0:0,0:0:0:0:
144,148,67507,2,0,B|163:114|201:100|235:108,1,90,2|0,0:0|0:0,0:0:0:0:
300,144,68125,2,0,L|448:128,2,135,6|0|8,0:0|0:0|0:0,0:0:0:0:
218,105,69362,6,0,B|186:104|158:122|144:148,1,90,6|8,0:0|0:0,0:0:0:0:
92,224,69981,2,0,B|76:258|82:297|104:324,1,90,2|8,0:0|0:0,0:0:0:0:
172,356,70600,1,6,0:0:0:0:
388,68,71837,6,0,B|341:41|283:51|247:92|240:138,1,180,12|8,0:0|0:0,0:0:0:0:
277,210,72764,1,8,0:0:0:0:
204,264,73073,2,0,L|108:236,1,90,2|8,0:0|0:0,0:0:0:0:
56,304,73692,2,0,L|142:329,1,90,2|8,0:0|0:0,0:0:0:0:
227,356,74310,6,0,B|275:342|306:297|303:247|278:211,1,180,12|8,0:0|0:0,0:0:0:0:
204,264,75238,1,8,0:0:0:0:
132,208,75548,2,0,B|101:164|103:105|136:63|179:44,2,180,8|8|12,0:0|0:0|0:0,0:0:0:0:
204,264,77094,5,8,0:0:0:0:
280,220,77403,2,0,B|314:211|348:217|376:232,1,90,8|8,0:0|0:0,0:0:0:0:
428,296,78022,2,0,B|457:274|465:236|452:205,1,90,12|8,0:0|0:0,0:0:0:0:
404,144,78640,2,0,L|412:36,1,90,8|8,0:0|0:0,0:0:0:0:
320,40,79259,6,0,B|270:26|219:49|194:94|196:139,1,180,12|8,0:0|0:0,0:0:0:0:
220,220,80187,1,8,0:0:0:0:
168,296,80496,2,0,B|50:281|50:281|8:224,1,180,8|8,0:0|0:0,0:0:0:0:
44,56,81733,6,0,L|192:64,2,135,6|2|2,0:0|0:0|0:0,0:0:0:0:
72,140,82970,2,0,L|216:148,1,135,2|2,0:0|0:0,0:0:0:0:
276,88,83743,1,2,0:0:0:0:
404,132,84207,6,0,B|423:181|421:232|404:277,2,135,6|2|2,0:0|0:0|0:0,0:0:0:0:
344,64,85444,2,0,L|192:56,1,135,2|2,0:0|0:0,0:0:0:0:
124,28,86218,1,2,0:0:0:0:
48,140,86681,6,0,L|52:276,2,135,6|2|0,0:0|0:0|0:0,0:0:0:0:
27,51,87919,2,0,B|76:38|124:69|136:115,1,135,6|2,0:0|0:0,0:0:0:0:
152,200,88692,1,2,0:0:0:0:
